#TITLE:Deadly Pale Terrorism;
#SUBTITLE:;
#ARTIST:Komprex;
#TITLETRANSLIT:;
#SUBTITLETRANSLIT:;
#ARTISTTRANSLIT:;
#CREDIT:;
#BANNER:k.gif;
#BACKGROUND:k.jpg;
#LYRICSPATH:;
#CDTITLE:dark.gif;
#MUSIC:Deadlypaleterrorism.mp3;
#OFFSET:-0.250;
#SAMPLESTART:23.767;
#SAMPLELENGTH:12.000;
#SELECTABLE:YES;
#BPMS:0.000=255.000;
#STOPS:326.000=0.118
;
#BGCHANGES:;
// cache tags:
#FIRSTBEAT:16.000;
#LASTBEAT:964.000;
#SONGFILENAME:Songs/New Folder/Deadlypaleterrorism/Deadlypaleterrorism.sm;
#HASMUSIC:1;
#HASBANNER:1;
#MUSICLENGTH:228.675;
// end cache tags

//---------------dance-single - What The Shit?----------------
#NOTES:
     dance-single:
     What The Shit?:
     Edit:
     9001:
     1.000,1.000,1.000,0.367,0.984,1731.000,341.000,84.000,0.000,1.000:
0000
0000
0000
0000
,
0000
0000
0000
0000
,
0000
0000
0000
0000
,
0000
0000
0000
0000
,
0010
0000
0000
0000
0000
0000
0000
0001
0000
0000
0100
0000
,
0000
0000
0010
0000
0000
0000
0000
0000
0000
1000
0000
0000
0000
0000
0000
0000
0100
0000
0000
0000
0000
0000
0000
0000
,
1000
0000
0000
0100
0000
0000
1000
0000
,
0000
0020
0000
0000
,
0031
0000
0000
0000
0000
0000
0000
0100
0000
0000
0010
0000
,
0000
0000
0100
0000
0000
0000
0000
0000
0000
1000
0000
0000
0000
0000
0000
0000
0010
0000
0000
0000
0000
0000
0000
0000
,
0100
0000
0000
0010
0000
0000
0001
0000
,
0000
0000
2010
0000
,
3010
0000
0000
0000
0000
0000
0000
0100
0000
0000
0001
0000
,
0000
0000
0010
0000
0000
0000
0000
0000
0000
0100
0000
0000
0000
0000
0000
0000
0010
0000
0000
0000
0000
0000
0000
0000
,
0001
0000
0000
1000
0000
0000
0001
0000
,
0000
0000
0020
0000
,
1030
0000
0102
0000
0010
0003
0000
0000
,
0000
0000
0000
2100
,
0010
3000
0201
0000
0000
0300
0000
0000
,
0000
0000
0000
0000
2001
0000
0000
3000
,
0010
0000
2100
0000
0001
3000
0000
0000
,
0000
0000
0120
0000
,
1030
0000
0210
0000
0001
0300
0000
0000
,
0000
0000
2000
0000
,
3001
0000
0010
0000
1000
0000
0100
1000
,
0000
0010
0001
0100
0010
0000
1000
0000
,
0001
0100
0001
0010
,
0001
0010
0000
0100
0010
1000
0001
0000
,
1000
0000
0010
0000
0100
0000
0001
0000
1000
0000
0000
0000
0000
0010
0000
0000
,
0000
0000
0000
0001
0000
0000
0000
0000
0000
0000
0000
0000
0000
0000
0000
0000
0000
0000
0100
0000
0000
0000
0000
0000
0010
0000
0000
0000
0000
0000
0000
0000
1000
0000
0000
0000
0000
0000
0000
0000
0000
0000
0100
0000
0000
0000
0000
0000
,
0010
0000
0001
0010
0100
0000
0000
0000
0010
0000
0000
0000
1000
0000
0000
0000
,
0000
0000
0000
0100
0000
0010
0001
0100
0000
0000
0000
1000
,
0000
0000
0000
0100
0000
0000
0010
0100
1000
0000
0010
0000
,
0000
0000
1000
0000
0000
0000
0010
0000
0000
0000
0000
0000
1000
0000
0000
0000
0000
0000
0100
0000
0000
0010
0000
0000
,
1000
0000
0001
0000
1000
0000
0000
0010
,
0000
0000
0100
0000
0000
0000
0000
0000
1000
0000
0000
0000
0000
0000
0000
0000
0000
0001
0000
0000
0100
0000
0000
0000
0000
0000
1000
0000
0000
0000
0000
0000
,
0001
1000
0100
0000
0000
0000
0010
0000
0000
1000
0100
0000
,
0000
0001
0010
0000
0000
0000
1000
0010
0100
0010
0000
0000
,
0001
0100
0001
1000
0100
0010
0001
0000
0000
0100
0000
0000
,
0010
0001
1000
0000
0000
0000
0010
0000
0000
0100
0000
0000
,
0220
0000
0000
0000
,
0000
0000
0000
0000
,
0000
0000
0000
0000
,
0000
0000
0000
0000
,
0000
0000
0000
0000
,
0000
0000
0000
0000
0000
0000
0000
0000
0000
0330
0000
0000
0000
0000
0000
0000
,
0000
0000
0000
0000
,
0200
0000
2000
0000
0000
0000
0000
0300
0100
0000
0000
0000
0100
3000
0000
0000
,
0110
0000
0001
0010
0100
0000
1000
0010
,
0000
0100
0000
0010
1000
0000
0100
0000
,
0011
0000
1100
0010
0001
0000
0100
0010
,
0000
1000
0000
0001
0100
0000
0001
0000
,
1010
0000
0001
1000
0001
0000
0010
1000
,
0000
0100
0000
0010
1000
0000
0010
0000
,
0001
0010
0100
1000
1100
0000
0001
0010
,
0000
1000
0000
1000
0010
0000
0010
0000
,
0101
0000
1000
0100
0010
0000
0010
0100
,
0000
0001
0000
0010
1000
0000
0010
0000
,
1100
0000
1010
0100
0010
0000
1000
0001
,
0000
0010
0000
0001
0100
0000
0010
0000
,
1001
0000
0010
0100
1000
0000
0001
0100
,
0000
0100
0000
0100
0010
0000
0001
0000
,
1000
0010
0100
0001
0101
0000
1010
0000
,
0000
0000
0002
0000
,
1003
0100
0010
0100
1000
0001
0100
0010
,
1000
0100
0010
0001
0100
0010
1000
0100
,
0010
0001
1000
0100
0010
0100
1000
0010
0100
0001
0010
0100
1000
0010
0100
0001
,
1000
0000
0001
0000
0100
0000
0010
0000
1000
0000
0100
0000
0010
0000
0100
0000
1000
0000
0001
0000
1000
0000
0010
0000
0100
0010
0100
0001
0100
0010
0100
0001
,
0100
0010
1000
0100
0001
1000
0010
0100
,
0001
1000
0100
1000
0001
0100
0010
0100
,
0001
0000
1000
0000
0010
0000
0100
0000
0010
0000
1000
0000
0001
0000
0100
0000
0010
0000
1000
0000
0100
0010
0001
1000
0100
0010
0001
0100
0010
0000
0000
0000
,
1010
0000
0000
0000
0101
0000
0000
0000
0110
0000
1100
0000
0101
1000
0010
0100
,
0001
0001
1000
0100
1000
0010
0100
1000
,
0010
0010
1000
0100
0010
1000
0001
0010
,
0010
1000
0001
0100
0010
0100
1000
0100
,
0001
0100
0010
1000
0001
0100
0010
0100
0010
0001
1000
0100
0010
0001
0100
0010
,
0100
0001
1000
0010
0100
1000
0001
0100
,
0010
1000
0010
0100
0001
1000
0100
0010
,
0001
0000
1000
0010
0001
0000
0001
0010
1000
0000
1000
0100
0001
1000
0001
0000
,
0100
0010
0001
1000
0100
0000
0000
0000
0001
0010
0100
1000
0001
0000
0000
0000
1010
0000
0000
0000
0000
0000
0000
0000
0110
0000
0000
0000
0000
0000
0000
0000
,
0002
0000
0000
0000
,
0000
0000
0000
0000
0000
0000
0000
0000
0000
0000
0000
0000
0000
0003
0000
0000
,
1000
1000
0100
0100
0010
0010
0001
0001
,
0100
0100
0010
0010
1000
1000
0001
0001
,
0010
0010
0100
0100
0001
0001
1000
1000
,
0100
0000
0100
0010
0001
0100
0010
0000
1000
0000
1000
0000
0010
0001
0010
0001
,
0100
0000
0100
1000
0001
0000
0001
0000
1000
0000
1000
0000
0010
0000
0010
0000
,
0001
0000
0001
0010
1000
0000
1000
0000
0100
0000
0100
0000
0010
0000
0010
0000
,
1000
1000
0001
0001
0010
0010
0100
0100
,
0001
0000
0001
1000
0010
0001
1000
0000
0200
0000
0010
0000
0001
0000
0010
0300
,
0110
0010
1100
1000
0011
0001
0110
0100
,
1010
0010
1001
1000
0101
0100
1010
0010
,
1001
0001
1100
1000
0101
0001
0110
0010
,
1100
1000
0101
0100
1001
0001
0110
0100
,
0011
0001
0110
0100
1001
1000
0011
0010
,
0101
0001
1100
0100
1010
0010
0101
0001
,
1100
0000
1000
0000
0110
0000
0100
0000
0001
1000
0010
0100
0001
1000
0010
0100
,
1000
0010
0100
0001
0010
0100
1000
0010
0100
0001
1000
0100
0010
0000
0001
0000
1010
0000
0000
0000
1100
0000
0000
0000
0101
0000
0000
0000
0011
0000
0000
0000
,
0110
2010
0000
0000
0000
0000
0000
0000
,
0000
0000
0000
0000
0000
0000
0000
0000
0000
0000
0000
0000
0000
0000
0000
0000
0000
0000
0000
0000
0000
0000
0000
0000
0000
0000
0000
0000
0000
0000
0000
0000
3000
0000
0000
0000
0000
0000
0000
0000
0200
0000
0000
0000
0010
0000
0000
0300
0200
0000
0000
0000
0010
0000
0000
0300
0200
0000
0000
0000
0010
0000
0000
0300
,
0200
0000
0000
0000
0010
0000
0000
0300
0200
0000
0000
0000
0010
0000
0000
0300
0200
0000
0000
0000
0010
0000
0000
0300
0200
0000
0000
0000
0010
0000
0000
0300
0200
0000
0000
0000
0010
0000
0000
0300
0200
0000
0000
0000
0010
0000
0000
0300
0200
0000
0000
0000
0010
0000
0000
0300
0200
0000
0000
0000
0010
0000
0000
0300
,
0200
0000
0000
0000
0010
0000
0000
0300
0200
0000
0000
0000
0010
0000
0000
0300
0200
0000
0000
0000
0010
0000
0000
0300
0200
0000
0000
0000
0010
0000
0000
0300
0200
0000
0000
0000
0010
0000
0000
0300
0200
0000
0000
0000
0010
0000
0000
0300
0200
0000
0000
0000
0010
0000
0000
0300
0200
0000
0000
0000
0010
0000
0000
0300
,
0200
0000
0000
0000
0010
0000
0000
0300
0200
0000
0000
0000
0010
0000
0000
0300
0200
0000
0000
0000
0010
0000
0000
0300
0200
0000
0000
0000
0010
0000
0000
0300
0200
0000
0000
0000
0010
0000
0000
0300
0200
0000
0000
0000
0010
0000
0000
0300
0200
0000
0000
0000
0010
0000
0000
0300
0200
0000
0000
0000
0010
0000
0000
0300
,
0200
0000
0000
0000
0010
0000
0000
0300
0200
0000
0000
0000
0010
0000
0000
0300
0200
0000
0000
0000
0010
0000
0000
0300
0200
0000
0000
0000
0010
0000
0000
0300
0200
0000
0000
0000
0010
0000
0000
0300
0200
0000
0000
0000
0010
0000
0000
0300
0200
0000
0000
0000
0010
0000
0000
0300
0200
0000
0000
0000
0010
0000
0000
0300
,
0201
0000
0000
0000
0010
0000
0000
0300
0200
0000
0000
0000
1010
0000
0000
0300
0200
0000
0000
0000
0010
0000
0000
0300
0201
0000
0000
0000
0010
0000
0000
0300
1200
0000
0000
0000
0010
0000
0000
0300
0200
0000
0000
0000
0010
0000
0000
0300
0201
0000
0000
0000
0010
0000
0000
0300
0200
0000
0000
0000
0010
0000
0000
0300
,
0201
0000
0000
0000
0010
0000
0000
0300
0200
0000
0000
0000
0010
0000
0000
0300
0200
0000
0000
0000
0010
0000
0000
0300
0200
0000
0000
0000
0010
0000
0000
0300
0200
0000
0000
0000
0010
0000
0000
0300
0200
0000
0000
0000
0010
0000
0000
0300
0200
0000
0000
0000
0010
0000
0000
0300
0200
0000
0000
0000
0010
0000
0000
0300
,
0100
1000
0000
1000
0100
0000
0001
0000
,
0010
0100
0000
0010
1000
0000
0010
0000
,
1001
0000
0101
0000
,
1010
0000
0110
0000
,
1001
0000
0101
0110
,
1100
0000
0110
0000
,
1001
0000
0101
0000
,
0110
0000
1100
0000
,
0101
0000
1010
0000
,
0110
0101
0011
1100
,
0220
0000
0000
0000
,
0000
0000
0000
0000
0000
0000
0000
0000
0000
0000
0000
0000
0000
0330
0000
0000
,
0100
0010
0001
0000
1000
0000
0010
0001
0100
0000
1000
0000
0010
0001
0100
0000
,
0010
0000
0001
0100
1000
0000
0010
0000
0100
0001
0010
0000
1000
0000
0001
0000
,
0100
1000
0010
0000
1000
0000
0001
0010
0100
0000
0010
0000
0100
0001
1000
0000
,
0010
0000
0001
0100
1000
0000
0010
0000
0001
1000
0001
0000
0010
0100
0010
0000
,
1000
0001
0010
0000
0001
0000
0100
1000
0010
0000
0001
0000
0100
1000
0010
0000
,
0100
0000
1000
0010
0001
0000
0100
0000
0010
1000
0100
0000
0001
0000
1000
0000
,
0010
0001
0100
0000
0001
0000
1000
0100
0010
0000
0100
0000
0010
1000
0001
0000
,
0100
0000
1000
0010
0100
0001
0010
0100
1010
0000
0000
0000
0110
0000
0000
0000
,
0001
0000
0100
0000
0010
0000
1000
0000
0100
0100
0010
0000
1000
0000
0001
0000
,
0100
0000
0000
0000
0010
0000
0000
0000
0100
0000
0000
0000
1000
0000
0000
0000
0010
0000
0010
0000
0100
0000
0000
0000
0010
1000
0001
0010
0100
0000
0000
0000
,
1000
1000
0010
0000
1000
0000
0001
0001
0100
0000
0010
0000
0100
0000
1000
0000
,
0010
0000
0000
0000
0000
0000
0000
0000
0001
0000
0100
0000
0010
0000
1000
0000
0100
0000
0000
0000
0000
0000
0000
0000
0001
0000
0000
0000
0000
0000
0000
0000
0010
0001
1000
0100
0010
1000
0001
0010
0100
0001
0010
1000
0100
0001
1000
0100
0010
0000
0000
0000
0001
0000
0000
0000
0010
0000
0000
0000
1000
0000
0000
0000
,
0100
0001
1000
0010
0100
1000
0010
0100
,
0001
0010
1000
0100
1000
0001
0100
0010
,
1000
0000
0000
0000
0100
0000
0000
0000
0010
0000
0000
0000
0001
0000
0000
0000
0100
0000
0010
0000
0001
0000
1000
0000
0010
0000
0100
0000
0001
1000
0001
1000
,
0010
0000
0100
0000
0001
0000
1000
0000
0010
0000
0100
0000
0010
0000
0100
0000
0001
1000
0010
0100
1000
0001
0100
0010
0001
0000
0000
0000
0000
0000
0000
0000
1000
0001
0010
0100
0010
1000
0001
0100
0010
0001
1000
0010
0001
0100
1000
0001
0010
1000
0001
0100
0010
0001
1000
0000
0100
0010
1000
0100
0010
0001
0100
0010
,
2000
0000
0000
0000
,
0000
0000
0000
0000
,
0000
0000
0000
0000
,
3000
0000
0000
0000
,
0000
0000
0000
0000
,
0000
0000
0000
0000
,
0001
0001
0001
0001
,
0001
0001
0001
0001
,
0010
0010
0010
0010
,
0010
0010
0010
0010
,
0100
0100
0100
0100
,
0100
0100
0100
0100
,
1000
1000
1000
1000
,
1000
1000
1000
1000
,
0010
0010
0010
0010
,
0010
0010
0010
0010
,
0100
0100
0100
0100
,
0100
0100
0100
0100
,
1000
1000
1000
1000
,
1000
1000
1000
1000
,
0010
0010
0010
0010
,
0010
0010
0010
0010
,
1000
0001
0100
0010
0000
0000
0000
0000
0000
0000
0000
0000
0000
0000
0000
0000
,
0001
0000
0000
0000
0000
0000
0000
0000
0000
0000
0000
0000
1000
0001
0010
0100
,
0010
1000
0001
0000
0000
0000
0010
0100
0010
0000
0010
0000
0010
0000
0000
0000
,
1000
0010
0100
0010
1000
0000
0000
0000
0000
0000
0000
0000
0000
0000
0000
0000
,
0101
1000
0000
0000
0101
0010
0000
0000
0000
0000
0000
0000
0000
0000
0000
0000
,
0001
0000
0001
0000
0000
0000
0000
0000
0100
1000
0100
0001
1000
0010
0000
0000
,
0100
0010
0100
1000
0010
0010
0001
0001
0000
0000
1000
0001
0100
0010
0000
0000
,
0001
0000
0100
1000
0010
0000
1000
0000
0100
0010
1000
0000
0000
0000
0000
0000
,
0100
0010
0100
0001
0100
0010
1000
0000
1000
0000
0000
0000
0100
0010
0001
0100
,
1000
0000
0000
0000
0100
0000
1000
0100
1000
0100
0000
0000
0001
0000
0000
0000
,
1000
0000
0100
0001
0010
0000
0000
0000
0001
0000
0000
0000
1000
0000
0100
0000
0001
0000
0000
0000
0001
0000
0000
0000
0001
0000
0000
0000
0000
0000
0000
0000
,
0010
0100
1000
0001
0100
0010
1000
0100
0010
0000
0000
0000
0001
0000
0000
0000
0001
0000
0000
0000
0000
0000
0000
0000
0001
0000
0000
0000
0000
0000
0000
0000
,
0001
1000
0100
0010
0001
0000
0000
0000
1000
0001
0100
0010
1000
0100
0010
0001
1000
0000
0000
0000
1000
0000
0000
0000
0000
0000
0000
0000
0001
1000
0010
0100
,
0001
0000
0000
0000
0000
0000
0000
0000
1000
0100
0010
0001
1000
0010
0100
0001
1000
0100
0010
1000
0100
0010
0001
0100
1000
0000
0000
0000
0000
0000
0000
0000
0010
0000
0000
0000
0000
0000
0000
0000
1000
0000
0000
0000
0010
0000
0000
0000
1000
0000
0000
0000
0100
0000
0000
0000
0000
0000
0000
0000
0000
0000
0000
0000
,
0001
1000
0010
0100
1000
0010
0100
0001
0010
0001
0100
0010
1000
0100
0000
0000
,
0001
0000
0000
0000
0000
0000
0000
0000
1000
0000
0000
0000
0100
0000
0000
0000
0010
0000
0000
0000
1000
0000
0000
0000
0100
0000
0000
0000
0000
0000
0000
0000
0010
0001
1000
0100
0010
0001
0100
0010
1000
0001
0010
0100
1000
0001
0100
0010
2000
0000
0000
0000
0000
0000
0000
0000
0000
0000
0000
0000
0000
0000
0000
0000
,
0000
0000
0000
0000
,
0000
0000
0000
3010
,
0101
0011
0110
1010
0101
1001
0101
1010
,
0110
1001
0011
0110
1010
0011
0101
1100
,
1001
0101
0110
1010
1100
0011
0110
1001
,
0101
0000
1100
0000
0011
0000
0110
0000
1100
0000
0110
0000
1001
0011
0101
0011
,
1010
1100
0110
0101
1010
1001
1010
0101
,
0110
1001
1100
0110
0101
1100
1010
0011
,
1001
0000
1010
0000
0110
0000
0101
0000
0011
0000
1100
0000
0110
0001
1100
0010
,
0101
0000
0011
0000
1100
1001
1010
1001
1100
0000
0000
0000
1001
1100
1010
1100
,
1001
1010
1001
1100
0011
0110
0011
1100
,
1001
0110
1010
1001
1100
1010
0011
0101
,
0110
0011
1001
1100
0101
1010
1001
0110
,
0011
0000
0101
0000
1010
0000
1001
0000
0101
0000
1001
0000
0110
1010
0011
1010
,
1100
0101
1001
0011
1100
0110
1100
0011
,
1001
0110
0101
1001
0011
0101
1100
1010
,
0110
0101
0000
2000
,
0000
0000
0000
3000
,
1100
0101
1001
0011
1100
0110
1100
0011
,
1001
0110
0101
1001
0011
0101
1100
1010
,
0110
1100
1001
0011
1010
0101
1001
0110
,
1100
0000
1010
0000
0101
0000
1001
0000
1010
0000
1001
0000
0110
0110
0110
0110
,
0110
1010
1001
1100
0011
0110
0011
1100
,
1001
0110
1010
1001
1100
1010
0011
0101
,
0110
0011
1001
1100
0101
1010
1001
1010
,
0101
0010
0011
1000
1010
0001
0011
1000
1010
0000
0101
0000
0110
1100
0110
0011
,
0110
1010
1100
1001
0110
0011
0110
1001
,
1100
0011
1010
1100
1001
1010
0110
0101
,
0011
0110
1100
1001
0101
1010
1100
0011
,
0110
0000
0101
0000
1010
0000
1100
0000
0101
0000
1100
0000
0011
0011
0011
0011
,
0011
0101
1100
0110
1001
0011
1001
0110
,
1100
0011
0101
1100
0110
0101
1001
1010
,
0011
0011
1001
0000
1100
0000
0110
0110
1010
0000
0101
0000
1100
0000
0101
0101
,
1010
0110
0000
0000
,
1000
0100
1000
0100
1000
0100
1000
0100
,
1000
0100
1000
0100
1000
0100
1000
0100
,
0001
0100
0001
0100
0001
0100
0001
0100
,
0001
0000
0000
0000
0100
0000
0000
0000
0001
0000
0000
0000
0100
0000
0000
0000
0001
0000
0100
0000
0001
0000
0000
0000
0100
0001
0100
0001
0100
0001
0100
0001
,
0010
0001
0010
0001
0010
0001
0010
0001
,
0010
0001
0010
0001
0010
0001
0010
0001
,
0010
0000
1000
0000
0010
1000
0010
0000
1000
0000
0010
1000
0010
0000
1000
0000
,
0010
0000
1000
0000
0010
0000
0000
0000
1000
0010
1000
0010
1000
0000
0000
0000
0010
0000
1000
0000
0010
0000
0000
0000
1000
0010
1000
0010
1000
0010
1000
0010
,
1000
0000
0001
0000
1000
0000
0001
0000
1000
0000
0001
0000
1000
0001
1000
0001
,
1000
0000
0001
0000
1000
0000
0001
0000
1000
0000
0001
0000
1000
0001
1000
0001
,
1000
0000
0000
0000
0100
0001
0100
0001
0100
0000
0000
0000
0001
0000
0000
0000
0100
0000
0001
0000
0100
0000
0000
0000
0001
0100
0001
0100
0001
0100
0001
0100
,
0001
0000
0000
0000
0100
0000
0000
0000
0001
0000
0100
0000
0001
0000
0100
0000
0001
0000
0000
0000
0100
0000
0000
0000
0001
0100
0001
0100
0001
0100
0001
0100
,
0010
0100
0010
0000
0100
0000
0010
0100
0010
0100
0010
0000
0100
0010
0100
0010
,
0100
0000
0010
0000
0100
0000
0010
0100
0010
0000
0100
0000
0010
0100
0010
0100
,
0010
0000
0000
0000
1000
0000
0010
0000
1000
0010
1000
0010
1000
0010
1000
0010
1000
0010
1000
0010
1000
0010
1000
0010
1000
0000
0000
0000
0010
0000
1000
0000
,
0010
0100
0010
0001
0100
0010
1000
0100
0001
0010
1000
0001
0100
0010
1000
0001
0010
0100
1000
0001
0100
1000
0001
1000
0100
0000
0000
0000
0010
0000
0000
0000
,
0002
0100
0100
0100
0100
0100
0100
0100
,
0100
0100
0100
0100
0100
0100
0100
0100
,
2003
0100
0100
0100
0100
0100
0100
0100
,
0100
0100
0100
0100
0100
0100
0100
0100
,
3020
0001
0001
0001
0001
0001
0001
0001
,
0001
0001
0001
0001
0001
0001
0001
0001
,
0230
1000
1000
1000
1000
1000
1000
1000
,
1000
1000
1000
1000
1000
1000
1000
1000
,
0302
0010
0010
0010
0010
0010
0010
0010
,
0010
0010
0010
0010
0010
0010
0010
0010
,
2003
0100
0100
0100
0100
0100
0100
0100
,
0100
0100
0100
0100
0100
0100
0100
0100
,
3020
0001
0001
0001
0001
0001
0001
0001
,
0001
0001
0001
0001
0001
0001
0001
0001
,
0230
1000
1000
1000
1000
1000
1000
1000
,
1000
1000
1000
1000
1000
1000
1000
2000
,
0000
0000
0000
0000
,
0000
0000
0000
0000
,
0000
0000
3000
0000
,
0300
0000
0000
0000
;
